Перейти к содержимому


Перед регистрацией ознакомьтесь с темой про сертификат безопасности:
Фотография
- - - - -

Некорректно показываются Proxy файлы в Premiere

proxy premiere media encoder

  • Please log in to reply
2 ответов в этой теме

#1 Kolobokk

Kolobokk

    Дали нажать на красную кнопку :)

  • Участники
  • PipPipPip
  • 94 Сообщений:

Отправлено 21 Jun 2022 - 08:05

Привет!
При создании (через Media Encoder) Proxy из файлов, снятых смартфоном Xiaomi (Poco) в вертикальной ориентации, кадр в Premiere 2020 (14.5.0 b51) показывается в виде узкой полосочки. Скриншот прилагается. Прокси из горизонтального кадра получается корректным.
 
Вот данные прокси с вертикальным расположением кадра:
Format                      : ProRes
Format version              : Version 0
Format profile              : 422 HQ
Codec ID                    : apch
Duration                    : 3s 500ms
Bit rate mode               : Variable
Bit rate                    : 18.5 Mbps
Width                       : 640 pixels
Height                      : 360 pixels
Display aspect ratio        : 16:9
Frame rate mode             : Constant
Frame rate                  : 30.000 fps
Color space                 : YUV
Chroma subsampling          : 4:2:2
Scan type                   : Progressive
Bits/(Pixel*Frame)          : 2.673
Stream size                 : 7.71 MiB (82%)
 
А это в горизонтальной ориентации:
Format                      : ProRes
Format version              : Version 0
Format profile              : 422 HQ
Codec ID                    : apch
Duration                    : 2s 933ms
Bit rate mode               : Variable
Bit rate                    : 49.2 Mbps
Width                       : 640 pixels
Height                      : 360 pixels
Display aspect ratio        : 16:9
Frame rate mode             : Constant
Frame rate                  : 30.000 fps
Color space                 : YUV
Chroma subsampling          : 4:2:2
Scan type                   : Progressive
Bits/(Pixel*Frame)          : 7.120
Stream size                 : 17.2 MiB (92%)
 
Исходные кадры отличаются только наличием параметра "Rotation: 90°" в вертикальном кадре:
Format                      : HEVC
Format/Info                 : High Efficiency Video Coding
Format profile              : Main@L5.1@Main
Codec ID                    : hvc1
Codec ID/Info               : High Efficiency Video Coding
Duration                    : 3s 500ms
Bit rate                    : 39.1 Mbps
Width                       : 3 840 pixels
Height                      : 2 160 pixels
Display aspect ratio        : 16:9
Rotation                    : 90°
Frame rate mode             : Variable
Frame rate                  : 30.000 fps
Minimum frame rate          : 29.910 fps
Maximum frame rate          : 30.090 fps
Standard                    : NTSC
Color space                 : YUV
Chroma subsampling          : 4:2:0
Bit depth                   : 8 bits
Bits/(Pixel*Frame)          : 0.157
Stream size                 : 16.3 MiB (95%)
 
Кому-нибудь приходилось решать данную проблему?
Спасибо!
 
Video_in_premiere.jpg


#2 Yuri_Teplo

Yuri_Teplo

    Сенсей для друзей по NLE

  • Писатели
  • PipPipPipPipPipPipPipPipPipPip
  • 1176 Сообщений:
  • место работы:

Отправлено 21 Jun 2022 - 22:08

а может посвежее премьер попробовать?



#3 Kolobokk

Kolobokk

    Дали нажать на красную кнопку :)

  • Участники
  • PipPipPip
  • 94 Сообщений:

Отправлено 22 Jun 2022 - 07:14

а может посвежее премьер попробовать?

Спасибо за ответ!

Да, на Adobe-вском форуме было упоминание, что баг пофиксили в Pr 2022, но это ж нужно не только Pr менять, а и весь пакет, которые через Dynamic Link работает. А там ещё окажется, что и дрова нужно подбирать. У меня ускоритель мобильный, несертифицированный, и я к нему с большим трудом смог дрова подобрать. Предыдущий Pr, который нормально работал, был еще Pr 2015.4. Не факт что Pr 2022 вообще удастся запустить. Если бы ОС слетела, тогда можно было бы ещё попробовать. :) Но это маловероятно, так как у меня обновление отключено. 

 

Я просто предположил, что за два года кто-то мог эту проблему решить, а не ждать пока баг пофиксят. А пока буду переупаковывать в landscape. Там всё работает. 





Also tagged with one or more of these keywords: proxy, premiere, media encoder

0 человек читают эту тему

0 пользователей, 0 гостей, 0 скрытых пользователей



Рейтинг@Mail.ru