Перейти к содержимому


Перед регистрацией ознакомьтесь с темой про сертификат безопасности:
Фотография
- - - - -

ProCoder и XviD

procoder xvid divx mpeg4 carbon coder carbon coder promedia rhozet

  • Please log in to reply
1 reply to this topic

#1 Vidosick

Vidosick

    Дал камеру подержать другу

  • Участники
  • PipPipPipPipPip
  • 200 Сообщений:

Отправлено 18 Sep 2017 - 18:41

Есть авишки в XviD. В VirtualDUB вырезаю из них нужное для монтажа. Потом пытаюсь затащить в Carbon Coder 3.26, чтобы перекодить во что-то потребное.

Но кодер их не принимает и выдаёт ошибку:

8815e3eb055140e9cff1df2d9ca73f39.jpg

Последний Xvid codec в системе установлен. Что не так, как исправить?

 

MediaInfo:

Формат                                   : AVI
Формат/Информация                        : Audio Video Interleave
Размер файла                             : 494 Мбайт
Продолжительность                        : 43 м. 57 с.
Общий поток                              : 1571 Кбит/сек
Программа кодирования                    : Lavf53.13.0

Видео
Идентификатор                            : 0
Формат                                   : MPEG-4 Visual
Профиль формата                          : Simple@L1
Параметр BVOP формата                    : Нет
Параметр QPel формата                    : Нет
Параметр GMC формата                     : Без точки перехода
Параметр матрицы формата                 : Default (H.263)
Идентификатор кодека                     : XVID
Идентификатор кодека/Подсказка           : XviD
Продолжительность                        : 43 м. 57 с.
Битрейт                                  : 1400 Кбит/сек
Ширина                                   : 720 пикселей
Высота                                   : 576 пикселей
Соотношение сторон                       : 4:3
Частота кадров                           : 25,000 кадров/сек
Стандарт вещания                         : PAL
Цветовое пространство                    : YUV
Субдискретизация насыщенности            : 4:2:0
Битовая глубина                          : 8 бит
Тип развёртки                            : Прогрессивная
Метод сжатия                             : С потерями
Бит/(Пиксели*Кадры)                      : 0.135
Размер потока                            : 440 Мбайт (89%)
Библиотека кодирования                   : Lavc53.19.0

Аудио
Идентификатор                            : 1
Формат                                   : AC-3
Формат/Информация                        : Audio Coding 3
Расширение режима                        : CM (complete main)
Параметр Endianness формата              : Big
Идентификатор кодека                     : 2000
Продолжительность                        : 43 м. 57 с.
Вид битрейта                             : Постоянный
Битрейт                                  : 160 Кбит/сек
Каналы                                   : 2 канала
Расположение каналов                     : Front: L R
Частота                                  : 48,0 КГц
Частота кадров                           : 31,250 кадров/сек (1536 spf)
Битовая глубина                          : 16 бит
Метод сжатия                             : С потерями
Размер потока                            : 50,3 Мбайт (10%)
Выравнивание                             : Соединение по промежуткам
Продолжительность промежутка             : 32  мс. (0,80 видеокадр)

 


Сообщение отредактировано Vidosick: 18 Sep 2017 - 18:49


#2 Vidosick

Vidosick

    Дал камеру подержать другу

  • Участники
  • PipPipPipPipPip
  • 200 Сообщений:

Отправлено 19 Sep 2017 - 12:41

Поставил K-Lite Codec Pack Full и всё наладилось- ProCoder открывает нужный формат.


Сообщение отредактировано Vidosick: 19 Sep 2017 - 13:03






Also tagged with one or more of these keywords: procoder, xvid, divx, mpeg4, carbon, coder, carbon coder, promedia, rhozet

0 человек читают эту тему

0 пользователей, 0 гостей, 0 скрытых пользователей



Рейтинг@Mail.ru